Skip to main content

Reason For Leaving Live at Mr Roberts' on 2008-03-21




end of set I:
01. Wrong Way
02. Don't Push
03. Pawnshop
04. tequila break
05. Date Rape
06. setbreak


Collection ReasonForLeaving
Band/Artist Reason For Leaving
Venue Mr Roberts'
Location Madison WI USA

Source Neumann KM140's (ORTF pair) > Beyer MV100 > Zoom H2
Lineage WAV > Audacity 1.2.6 (boost levels, convert to 16-bit 44.1KHz, track in 1/75 second intervals) > AIFF files > xACT 1.62 > FLAC (level 8 compression)
Taped by TAS aka morst
Transferred by TAS aka morst

Notes

Jose And Sumlimes
"Good" Friday, March 21, 2008
Mr Roberts'
Madison WI

end of set I

Source: KM140's in hat > MV100 > Zoom H2 @48KHz/24-bit .WAV from front center of stage
Transfer: .WAV > Audacity 1.2.6 (dither to 16-bit/44.1 and track in 1/75 second increments) > xACT 1.62 > FLAC (level 8)

recording begins midway through "Wrong Way"

Links:
http://www.myspace.com/joseandsumlimes
http://www.zoom.co.jp/english/products/h2
http://www.neumann.com/?ang=en&id=current_microphones&cid=km100_description


SHNTOOL
length expanded size cdr WAVE problems fmt ratio filename
2:21.21 24921836 B --- -- ---xx JoseSumlimes2008-03-21t01.flac
5:31.61 58531916 B --- -- ---xx JoseSumlimes2008-03-21t02.flac
8:19.61 88167116 B --- -- ---xx JoseSumlimes2008-03-21t03.flac
1:17.14 13615772 B --- -- ---xx JoseSumlimes2008-03-21t04.flac
4:00.04 42345452 B --- -- ---xx JoseSumlimes2008-03-21t05.flac
2:26.40 25848524 B --- -- ---xx JoseSumlimes2008-03-21t06.flac
23:56.51 253430616 B 0.5521 (6 files)


-=-=-=-=-=-=-=-=-=-=-=-=-=-=-=-=-=-=-=-=-=-=-=-=-
Soundscape Preservation Society Founded 1991
http://www.iamtypingwithonefinger.com/SPS.html
-=-=-=-=-=-=-=-=-=-=-=-=-=-=-=-=-=-=-=-=-=-=-=-=-

Reviews

There are no reviews yet. Be the first one to write a review.
PEOPLE ALSO FOUND
Reason For Leaving
by Reason For Leaving
3,080
0
2
( 2 reviews )
Source: Neumann KM140's > Beyer MV100 > Sony SBM-1 (Oade mod) > Sony TCD-D100 DAT @48KHz
Reason For Leaving
by Reason For Leaving
791
0
0
Source: KM140 Matrix > DAT
Reason For Leaving
by Reason For Leaving
13,714
0
1
( 1 reviews )
Source: Neumann KM140's (approx ORTF, FOB) > Beyer MV100 (+20dB gain) > Sony SBM-1 (Oade mod) > 48KHz S/Pdif > Sony PCM-M1
Reason For Leaving
by Reason For Leaving
3,136
1
0
Source: KM140's > MV100 > TCD-D10 ProII
Reason For Leaving
by Reason For Leaving
495
1
0
Source: Neumann KM140s's > Beyer MV100 > Sony DAT
Reason For Leaving
by Reason For Leaving
693
1
0
Source: DSBD > DAT
Reason For Leaving
by Reason For Leaving
2,192
1
0
Source: Pre-FM > Fostex D-10 Master DAT recorder
Reason For Leaving
by Reason For Leaving
456
1
0
Source: Matrix of SBD + Neumann KM 140's > DAT
Reason For Leaving
by Reason For Leaving
1,676
1
0
Source: KM140's > MV100 > DAT
Reason For Leaving
by Reason For Leaving
886
1
0
Source: SBD > M1